РАЗДЕЛЫ КАТАЛОГА

чем смотреть аватар.60fps

 

 

 

 

Скачать .torrent файл (основная ссылка для скачивания файла) Смотреть / Слушать онлайн просмотр (ссылка для просмотра файла через плагин Torrent Stream).Avatar (2009) BDRip 1080p. Аватар / Avatar Год выпуска: 2009 Страна: США, Великобритания Жанр: фантастика, боевик, драма, приключения Продолжительность: 02:41:41 Перевод: Профессиональный (полное дублирование) (Blu-ray CEE) Субтитры: Русские (речьИнфо, по поводу 60fps в этом фильме. Больше. Трекер. Аватар / Avatar (2009) BDRip 720p 60fps.Комментарий добавлен 27 Октябрь 2012 - 18:06. Спасибо. P.S. Смотри мою подпись. Джеймс Кэмерон - настоящий режиссер, а я - настоящий зритель! Информация о фильме Название: Аватар (Расширенное коллекционное издание) Оригинальное название: Avatar (Extended Collectors Cut) Год выхода: 2009 Жанр: Фантастика, БоевикФайл Кодек: H.264/AVC Качество: BDRip 1080p Видео: 1920x1080, 32300kbps, 59.94 fps. Название: Аватар Оригинальное название: Avatar Год выпуска: 2009 Страна: США, Великобритания Жанр: фантастика, боевикКачество: BDRip 1080p / 60 FPS Формат: MKV Видео кодек: AVC Аудио кодек:AC3, DTS Видео: AVC, 1920x1080, 16284 kbps, 59,940 fps Аудио Скачать .torrent файл (основная ссылка для скачивания файла) Смотреть / Слушать онлайн просмотрИнформация о фильме Название: Аватар Оригинальное название: Avatar Год выходаФайл Кодек: H.264/AVC Качество: BDRip 720p Видео: 1280x720, 15000kbps, 59.94 fps. 48 ещё куда не шло, а вот 60 fps воспринимаются как ускоренное изображение. Из-за этого смотреть тяжело и некомфортно.

В 60 кадрах очень сильно выделяется компьютерная графика (сцена в конце фрагмента Аватара 60 фпс). кадров/сек Частота кадров в оригинале : 59,940 кадров/сек Цветовое пространство : YUV Субдискретизация насыщенности : 4:2:0 Битовая глубина : 8 бит Тип развёртки : Прогрессивная Бит/(ПикселиКадры) : 0.201 Размер потока : 27,9 Гбайт (90) Заголовок : 3D 60 FPS Ибо чтобы уместить 60 фпс Аватара на блюреях вероятней всего понадобится 2 или даже 3 блюрея (учитывая что нужен будет высокий битрейт).Попробуйте после просмотра 60-FPS-рипа включить сразу оригинал и смотреть невозможно, плавности нехватает! Аватар / Avatar 60 кадр/с Название: Аватар Оригинальное название: Avatar Год выхода: 2009 Жанр: Фантастика, боевик, триллер, приключения СтранаФайл: Кодек: H.264/AVC Качество: BDRip 720p Видео: 1280x720, 15000kbps, 60 fps. Звук: Russian DTS 5.1, 48kHz, 24bit, 755kbps. Название: Аватар Оригинальное название: Avatar Год выпуска: 2009 Жанр: Фантастика, боевик, триллер, драма, приключения Выпущено: США, Великобритания, Dune Entertainment, GiantЭти 60fps не родные и не честные, а сделаны кем-то с помощью twixtor или подобного ему. Название: Аватар Оригинальное название: Avatar Год выхода: 2009 Жанр: фантастика Режиссер: Джеймс Камерон / James Cameron В ролях: Сэм Уортингтон, Зои Салдана, Сигурни Уивер, Стивен Лэнг, Мишель Родригес.avatar720p60fpsavc.torrent.

—А по вашим расчетам примерно, сколько может весить в 1080p Avatar (60fps). Аватар может дистанционно мысленно управляться, причём тонко таким оператором, внутри которого он не был создан (или его генетическим двойником, например, близнецом). (Аватар бел первым фильмом который смотрел стерео 3д) Тестовые спокойные сцены и в 24к/с можно рендерить.«Уверен, что при просмотре того ролика (Аватар 60 FPS) вы ловили себя на мысли, что игра актеров в фильме теперь выглядит как сцена из ТВ-сериалов или спортивной Не предназначено для просмотра на компьютерах с мониторами, имеющими 60 fps, возможен jitteАватар / Avatar (2009) BDRip 1080p | Extended Collectors Edition. Avatar Аватар fps смотри онлайн. Нарезка из фильма Аватар с высокой кадровой частотой 60 кадров в секунду.Scottysглаз человека воспринимает 24 фпс, какой смысл в 60ти не понимаю . Идиот, верь всегда рекламе! Ну, понятно, что мир быстро забудет об "Аватаре" и будет смотреть клипы Грымова - кто бы сомневался!Без всякого сомнения ваш релиз подходит только для мониторов начиная с 17-ти до 22-х дюймов и для тех, кто не знаком с частотой в 60fps. У нас вы можете скачать торрент Аватар / Avatar (2009/BDRip) 720p, 60 fps, а также многие другие фильмы абсолютно бесплатно и в хорошем качестве.Смотреть онлайн. Есть в коллекции Аватар 60fps, но театралка и 720р, поражал своим качеством и вот случайно обнаружил это чудо, большое спасибо!Попробуйте после просмотра 60-FPS-рипа включить сразу оригинал и смотреть невозможно, плавности нехватает! Название: Аватар Оригинальное название: Avatar Год выпуска: 2009 Жанр: Фантастика, боевик, триллер, приключения Выпущено: США Режиссер: Джеймс Камерон.Фильм состоит на 40 из живой съемки и на 60 из реалистичной компьютерной графики. Аватары — созданные при помощи генной инженерии гибриды, полученные комбинированием ДНК человека и коренных жителей планеты Пандоры — нави.Аватар / Avatar [60fps] (2009) BDRip 1080p от Crusader3000 | Extended Collectors Cut. Бесплатный торрент трекер » Фильмы » Фантастика » Аватар (Расширенная версия) / AvatarСкачиваем, устанавливаем и запускаем программу u-Torrent Скачиваем Аватар (РасширеннаяAvatar.[Extended.Collectors.Cut].BDRip.1080p.60fps .v1.Crusader3000-NewAge.mkv.torrent. Спасибо: 65535 / 0 Сообщения: 154837 Пол: Не указан. Аватар (Расширенное коллекционное издание). Avatar (Extended Collectors Cut).Полное имя : S:Avatar.[Extended.Collectors.Cut].BDRip.1080p.60fps.v1.Crusader3000-NewAge.mkv Формат Посмотрел по ссылке из топика отрывки из Аватара (снятого 60pfs), так было такое ощущение, что смотрю в 3D.bit.ly/hDndA2 Avatar 60 fps Автор утверждает что смог перендерить Аватар в 60 ксек. Теги: аватар, кадров, секундуavatar, frames, per, second.Рейтинг: 0 Комментариев: 0 Просмотров: 357. Avatar 3D download full HD. -Название: Аватар Оригинальное название: Avatar Год выпуска: 2009 Страна: США, Великобритания Жанр: фантастика7.90 (695 547) MPAA: PG-13 - Детям до 13 лет просмотр не желателен-Автор рипа:Tiberiumsun69-Качество: BDRip 1080p / 60 FPS Формат: MKV Видео Avatar (2009) BDRip 1080p. 60 fps (1).mkv Format : Matroska Format version : Version 4 / Version 2 File size : 22.3 GiB Duration : 2h 58mn Overall bit rate : 17.9 Mbps EncodedСпасибо. Плюс качаю на 120fps, буду сверять картинки, есть большая вероятность что комп не потянет ((. andrrrr78. Название фильма : Аватар / Avatar (2009) BDRip 720p | 60 fps.Соотношение сторон : 16:9. Режим частоты кадров : Постоянный. Частота кадров : 60,000 кадров/сек. Цветовое пространство : YUV. Устроившись поудобнее, с тарелкой вкусняшек мы начнем смотреть кино Аватар / Avatar 2009 года онлайн в хорошем качестве производства США, Великобритания, на данный момент абсолютно бесплатно! Смотреть Онлайн.Аватар может дистанционно мысленно управляться, причём только таким оператором, под которого он был создан (или его генетическим двойником(ISERGL) А качество тема нереальная, пасибки аплодеру. Если зальот 60 fps 19201080p, в ноги покланюсь! Сравнение частот кадров 12, 18, 25 и 60 fps Впечатляющая демонстрация возможностей камеры GoPro HERO3 Аватар [дублированный трейлер] Замедленная съемка 2564-HD кадра в секунду Фрагменты из фильма " Аватар", скорость воспроизведения 60 кадров в секунду.

стремно как-то кстати, люди, смотревшие отрывок из хоббита, которого снимали на 60 кадрах в секунду, в большинстве нелестноСтавишь это и будет всегда 60 fps в фильмах, если комп вытянет. "Кемерон заявил что готовит Аватар в варианте 60fps. Демку качаем здесь 116 метров 1280x720.Не поленился, скачал этого аватара, картинка шикарная, на старом ЭЛТ монике смотришь изображение с телевизора за 30к )) Сам Кемерон писал кадров в оригинале : 59,940 кадров/сек Цветовое пространство : YUV Субдискретизация насыщенности : 4:2:0 Битовая глубина : 8 бит Тип развёртки : Прогрессивная Бит/(ПикселиКадры) : 0.201 Размер потока : 27,9 Гбайт (90) Заголовок : 3D 60 FPS Качество: BDRip 1080p / 60 FPS Формат: MKV Видео кодек: AVC Аудио кодек:AC3, DTS Видео: AVC, 1920x1080, 16284 kbps, 59,940 fpsАватар через торрент Скачать бесплатно Аватар Аватар скачать торрент Аватар смотреть онлайн Cкачать фильм Аватар бесплатно Аватар Название: Аватар Оригинальное название: Avatar Год выпуска: 2009 Страна: США, Великобритания Жанр: фантастика, боевикКачество: BDRip 1080p / 60 FPS Формат: MKV Видео кодек: AVC Аудио кодек:AC3, DTS Видео: AVC, 1920x1080, 16284 kbps, 59,940 fps Аудио Avatar 60fps смотреть онлайн | Бесплатное видео в HD качестве без рекламы, без смс и без регистрации.Загружено 30 октября 2014. (Updampled with SVP). Avatar 2018 Video Game Announcement Trailer 4K 60FPS. Загружено 2 марта 2017. Скачать Аватар / Avatar с Uvaga.by.2009.BDRip.720p.Dub.60FPS.part6.rar. скачать dle 11.0 фильмы бесплатно. ФИЛЬМЫ HD » 60 FPS » Аватар / Avatar (2009) [60fps].Вы просто устанавливаете в плеер приложение ACE Stream и смотрите любой фильм с сайта онлайн в оригинале без скачивания торрентов. «Это новый мир»-- Информация Название: Аватар Оригинальное название: Avatar Год выхода: 2009 Жанр: фантастика, боевик, драма, приключения Режиссер: Джеймс Кэмерон Сценарий: Джеймс Кэмерон В ролях: Сэм Уортингтон, ЗоиЭффекты на высоте!! Да еще и в 60 fps!! Аватар. Оригинальное название Avatar Год выпуска 2009 Страна производитель США, Великобритания Жанр фантастикаaspect ratio : 16:9 Frame rate : 59.940 fps Color space : YUV Chroma subsampling : 4:2:0 Bit depth : 8 bits Scan type : Progressive Bits/(Pixel Frame) : 0.260 Информация о фильме Название: Аватар (Расширенное коллекционное издание) Оригинальное название: Avatar (Extended Collectors Cut) Год выхода: 2009 Жанр: Фантастика, БоевикAvatar.[Extended.Collectors.Cut].BDRip.1080p.60fps.v1.Crusader3000-NewAge.mkv [43.90 GB]. Возвращение на Пандору. АВАТАР - величайшее приключение.Avatar Jakes first flight 60 fps sample - Duration: 0:51. Rupert Jung 2,887 views. (119.880 fps) Проверено на windows media player, на ПК.Нагрузка на 8 ядер 35-30.Для ощущения разницы между 60 и 120 fps воспроизводить на дисплее с частотой 75-120гц.Обладателям ЭЛТ монитора просьба отписаться о данном У меня например комп спокойно тянет 120 Fps видео 720p. Врубаю любой фильм 24 Fps и смотрю его в 120 Fps, ни чего кодировать не надо, всё в реалтайме)).Ksab спасибо тебе за аватар! А другие фильмы с 60 fps имеются? Информация: Название: Аватар Оригинальное название: Avatar Год выпуска: 2009 Жанр: фантастика, боевик, драма, приключения Режиссер: Джеймс Кэмерон / James Cameron В ролях: Сэм Уортингтон, Зои Салдана, Сигурни Уивер, СтивенАватар 1080p 60fps.mkv - 23.26 Gb. У меня например комп спокойно тянет 120 Fps видео 720p. Врубаю любой фильм 24 Fps и смотрю его в 120 Fps, ни чего кодировать не надо, всё в реалтайме)).Ksab спасибо тебе за аватар! А другие фильмы с 60 fps имеются? Аватар / Avatar (2009) BDRip [1080p] 3D [Вертикальная анаморфная стереопара] [hand made 60 fps].Скачивайте торренты без ограничений и без всяких регистраций на трекерах. Начните скачивать торрент Аватар 60 fps прямо сейчас! Название: Аватар Оригинальное название: Avatar Год выпуска: 2009 Страна: США, Великобритания Жанр: фантастика, боевикКачество: BDRip 1080p / 60 FPS Формат: MKV Видео кодек: AVC Аудио кодек:AC3, DTS Видео: AVC, 1920x1080, 16284 kbps, 59,940 fps Аудио Похожие видео. Avatar 60fps. Добавлено: 2 год.Youtube at 60 FPS - comparison with 30. Добавлено: 3 год. Добавил: kliksphilip.

Записи по теме:


© —2018